Moderator Control Panel ]

TBS2630 Stream Drop

TBS2630 Stream Drop

Postby ddmmyy » Tue Nov 26, 2019 2:07 pm

Hi there i have TBS2630 Multi-channel HD h.264/h.265 Video Encoder firmware v.1.1.96 but when i play http stream on vlc it plays only random 2-5 seconds and stops !!!!

Any help ?
ddmmyy
 
Posts: 5
Joined: Tue Nov 26, 2019 11:18 am

Re: TBS2630 Stream Drop

Postby daowei » Tue Nov 26, 2019 2:58 pm

ddmmyy wrote:Hi there i have TBS2630 Multi-channel HD h.264/h.265 Video Encoder firmware v.1.1.96 but when i play http stream on vlc it plays only random 2-5 seconds and stops !!!!

Any help ?


Hi,
Maybe i'll send you a newer firmware, please upgrade for you Encoder and try:
http://www.tbsdtv.com/temp/tbs2603_firmware_v1.2.04.zip
download and unpack the zip package, and then upload "update.tar.bz2" to upgrade.

Or can you show us your setting? maybe some settings incorrect.

Thanks
daowei
 
Posts: 62
Joined: Fri Aug 12, 2016 6:17 pm

Re: TBS2630 Stream Drop

Postby ddmmyy » Tue Nov 26, 2019 3:38 pm

Tried this firmware but again same result.

tbs.png
ddmmyy
 
Posts: 5
Joined: Tue Nov 26, 2019 11:18 am

Re: TBS2630 Stream Drop

Postby ddmmyy » Tue Nov 26, 2019 3:43 pm

In VLC it stops in random seconds sometimes 2 seconds sometimes 5 but never play more than 10seconds.
in ffplay i get this error.
Code: Select all
Input #0, mpegts, from 'http://192.168.1.100:8080/hdmi': 0B f=0/0
  Duration: N/A, start: 39586.880567, bitrate: N/A
  Program 1
    Stream #0:0[0x100]: Video: h264 (Main) ([27][0][0][0] / 0x001B), yuvj420p(pc, bt709, progressive), 1280x720, 25 fps, 25 tbr, 90k tbn, 180k tbc
    Stream #0:1[0x101]: Audio: aac (LC) ([15][0][0][0] / 0x000F), 48000 Hz, stereo, fltp, 93 kb/s
  Program 2
    Metadata:
      service_name    : P1
      service_provider: SERVICE
[swscaler @ 0000013ccf0cc140] deprecated pixel format used, make sure you did set range correctly
[h264 @ 0000013cc4042cc0] error while decoding MB 25 43, bytestream -5
[h264 @ 0000013cc4042cc0] concealing 184 DC, 184 AC, 184 MV errors in P frame
ddmmyy
 
Posts: 5
Joined: Tue Nov 26, 2019 11:18 am

Re: TBS2630 Stream Drop

Postby echomay » Tue Nov 26, 2019 4:05 pm

Hi,
Please connect it by one cable between encoder and pc and try again to test if it is a net problem.
echomay
 
Posts: 63
Joined: Tue Apr 26, 2016 9:24 am

Re: TBS2630 Stream Drop

Postby ddmmyy » Tue Nov 26, 2019 4:17 pm

Yes tried direct cable between pc and encoder but same problem. is there any other way to debug this problem ?
ddmmyy
 
Posts: 5
Joined: Tue Nov 26, 2019 11:18 am

Re: TBS2630 Stream Drop

Postby ddmmyy » Tue Nov 26, 2019 4:49 pm

I didnt reboot after firmware upgrade!!! now i rebooted and is working fine. Thank you.
ddmmyy
 
Posts: 5
Joined: Tue Nov 26, 2019 11:18 am


Return to TBS2630 16 Channel Professional HD Video Encoder

Who is online

Users browsing this forum: No registered users and 1 guest